#TITLE:Snowbound;
#SUBTITLE:Earthbound;
#ARTIST:Blind;
#TITLETRANSLIT:;
#SUBTITLETRANSLIT:;
#ARTISTTRANSLIT:;
#CREDIT:;
#BANNER:;
#BACKGROUND:;
#LYRICSPATH:;
#CDTITLE:;
#MUSIC:Bound Together-16-bLiNd-SnowBound.mp3;
#OFFSET:-0.440;
#SAMPLESTART:100.000;
#SAMPLELENGTH:11.960;
#SELECTABLE:YES;
#BPMS:0.000=140.000;
#STOPS:;
#BGCHANGES:0.000=EB=1.000=0=0=1,
99999=-nosongbg-=1.000=0=0=0 // don't automatically add -songbackground-
;
// cache tags:
#FIRSTBEAT:0.500;
#LASTBEAT:676.000;
#SONGFILENAME:Songs/My Creations/Bound Together-16-bLiNd-SnowBound/Bound Together-16-bLiNd-SnowBound.sm;
#HASMUSIC:1;
#HASBANNER:0;
#MUSICLENGTH:290.194;
// end cache tags

//---------------dance-single - ----------------
#NOTES:
     dance-single:
     :
     Beginner:
     1:
     0.206,0.254,0.045,0.148,0.000,362.000,13.000,43.000,0.000,0.000:
0000
0000
0010
0000
0010
0000
0000
1000
,
0000
0000
1000
0000
0000
2000
0000
0000
,
0000
3000
0000
0000
0100
0000
0000
0100
,
0000
0000
0100
0000
0000
0200
0000
0000
,
0000
0300
0000
0000
0010
0000
0000
0010
,
0000
0000
0010
0000
0000
0020
0000
0000
,
0000
0030
0000
0000
0001
0000
0000
0001
,
0000
0000
0001
0000
0000
0002
0000
0000
,
0000
0000
0000
0000
1003
0000
0000
1000
,
0000
0000
0010
0000
0000
0020
0000
0000
,
0000
0030
0000
0000
1000
0000
0000
1000
,
0000
0000
0001
0000
0000
0002
0000
0000
,
0000
0003
0000
0000
0100
0000
0000
0100
,
0000
0000
1000
0000
0000
2000
0000
0000
,
0000
3000
0000
0000
0001
0000
0000
0001
,
0000
0000
1000
0000
0000
1000
0000
0000
,
0002
0000
0000
0000
0103
0000
0000
0100
,
0000
0000
1000
0000
0000
2000
0000
0000
,
0000
3000
0000
0000
0001
0000
0000
0001
,
0000
0000
0010
0000
0000
0020
0000
0000
,
0000
0030
0000
0000
0100
0000
0000
0100
,
0000
0000
0001
0000
0000
0002
0000
0000
,
0000
0003
0000
0000
1000
0000
0010
0000
,
0010
0010
0010
0000
,
0000
0000
0000
0000
1001
1000
0000
1000
,
0000
0000
0100
0000
0010
0010
0000
0010
,
0000
0000
0000
0000
0100
0100
0000
0100
,
0000
0000
0010
0000
0001
0001
0000
0001
,
0000
0100
0100
0000
,
0000
0100
0100
0000
0100
0000
0000
0000
,
0000
0100
0100
0000
0100
0000
0000
0000
,
0000
0000
0010
0010
0000
0000
0000
0000
,
0000
0000
1000
0000
0100
0100
0000
0100
,
0000
0000
1000
0000
1000
1000
0000
1000
,
0000
0000
0000
0000
0100
0100
0000
0100
,
0000
0000
1000
0000
1000
1000
0000
1000
,
0000
0010
0010
0000
,
0000
0000
1000
0001
0000
0000
0000
0000
,
0000
0000
1000
0001
0000
0000
0000
0000
,
0000
0000
1000
0001
0000
0000
0000
0000
,
0000
0000
1000
0000
1000
1000
0000
1000
,
0000
0000
0001
0000
0001
0001
0000
0001
,
0000
0000
0000
0000
1000
1000
0000
1000
,
0000
0000
0001
0000
0001
0001
0000
0001
,
0000
0100
0100
0010
,
0000
0000
0010
0100
0000
0000
0000
0000
,
0000
0000
0010
0100
0000
0000
0000
0000
,
0000
0000
0100
0010
0000
0000
0000
0000
,
0000
0000
1000
0000
,
0100
0000
1000
0000
,
0100
0000
1000
0000
,
0100
0000
0001
0010
,
0100
0010
0010
0000
,
0100
0000
1000
0000
,
0100
0100
0100
0000
,
0010
0000
0100
0000
,
1000
0000
1010
0000
,
0001
0000
0010
0000
,
0100
0000
1000
0000
,
1001
0000
0001
0010
,
0100
1000
0100
1000
,
0100
0010
0100
1000
,
0100
0010
0101
0000
,
0100
0100
0100
0000
,
0000
0100
1001
0000
,
0000
1000
1000
0100
,
0100
0000
0100
0100
,
0100
1000
1000
0000
,
1000
1000
1000
0000
,
0100
0010
0010
0000
,
0000
0100
1000
0000
,
0000
0100
1000
0000
,
0001
0001
0010
0010
,
0000
0100
0100
0100
,
0100
0100
1000
0000
,
1000
1000
1000
0001
,
0000
0100
0100
1000
,
0010
0001
0001
0000
,
0000
0010
0100
0000
,
0000
0010
0100
0000
,
0010
0100
1001
0001
,
0001
1000
1000
0000
,
0000
0000
0100
0100
,
0001
0001
0010
0000
,
0000
0010
0010
0000
,
0000
1000
0100
0000
,
0000
1000
0100
0000
,
0000
1000
0100
0000
,
0000
0000
0000
0000
0001
0001
0000
0001
,
0000
0000
0000
0000
0010
0010
0000
0010
,
0000
0000
0000
0000
0001
0001
0000
0001
,
0000
0000
0000
0000
0010
0010
0000
0010
,
0000
0001
0001
0001
,
0010
0100
0000
0000
,
0000
0000
0010
0010
0000
0000
0000
0000
,
0000
0000
0100
0100
0000
0000
0000
0000
,
0000
0001
0100
0010
,
0100
0010
0100
0010
,
0100
0010
0100
0010
,
0100
0010
0100
0010
,
0100
0010
0001
0000
,
0010
0100
0000
0000
,
1000
0000
0100
0000
,
0001
0000
0010
0000
,
0100
0000
0110
0000
,
1000
0000
0100
0000
,
1000
0000
1000
0000
,
0100
0000
0100
0010
,
0010
1000
0010
0000
,
0100
0000
0010
0000
,
1000
0000
0010
0000
,
0100
0000
0010
0000
,
1000
0000
2000
0000
,
0000
3000
0200
0000
,
0000
0300
0020
0000
,
0000
0030
0000
0000
0002
0000
0000
0000
,
0000
0003
0020
0000
,
0000
0030
0200
0000
,
0000
0300
0000
0000
2000
0000
0000
0000
,
0000
3000
0200
0000
,
0000
0300
2000
0000
,
0000
0000
3000
0100
0200
0000
0000
0000
,
0000
0300
0000
0000
0020
0000
0000
0000
,
0000
0000
0030
0100
0200
0000
0000
0000
,
0000
0300
0001
0000
,
0000
0000
0100
0100
0000
0100
0000
0000
,
0000
0000
0010
0010
0000
0010
0000
0000
,
0000
0000
0100
0100
0000
0100
0000
0000
,
0000
0000
0000
0000
0000
2002
0000
0000
,
0000
0000
0000
3003
0000
2002
0000
0000
,
0000
0000
0000
3003
0000
0000
2002
0000
,
0000
0000
0000
0000
3003
0000
0000
2002
,
0000
0000
0000
0000
0000
3003
0000
2002
,
0000
0000
0000
0000
,
3003
0000
0000
0000
0000
1000
1000
0000
,
1000
0000
0000
0000
0000
0000
0000
0100
,
0100
0100
0000
0000
,
0010
0010
0000
0110
0000
0000
0000
0000
,
0000
0001
0000
0000
,
0000
0010
0000
0000
,
0000
1000
0000
0000
,
0000
1000
0000
0000
0000
0100
0100
0000
,
0000
0002
0000
0000
0000
0003
0000
0000
,
0001
0000
0010
0100
,
1000
0000
0000
0000
,
0020
0000
0000
0000
,
0000
0000
0000
0000
0030
0000
0000
0001
,
0000
0000
0001
0000
0000
0000
0000
0002
,
0000
0000
0000
0003
0000
0000
0001
0000
,
0000
0000
0000
0000
0000
2000
0000
0000
,
0000
3000
0000
0020
,
0000
0000
0000
0000
,
0030
0000
0000
0000
0000
1000
0000
0000
,
0000
0000
1000
0000
0000
0002
0000
0000
,
0000
0003
0000
0000
0001
0000
0000
0000
,
0000
0001
0000
0000
1000
0000
0000
0000
,
0000
0000
0000
2000
0000
0000
0000
0000
,
0000
0000
0000
3000
,
0000
0001
0000
0000
,
0001
0002
0000
0000
,
0003
0000
0100
0000
0000
0000
0000
0100
,
0000
0200
0000
0000
0000
0300
0000
0000
,
0000
0002
0000
0000
0000
0000
0000
0000
,
0000
0000
0000
0000
,
0003
0000
0000
0000
;

//---------------dance-single - Copied from Copied f----------------
#NOTES:
     dance-single:
     Copied from Copied f:
     Challenge:
     1:
     0.608,0.678,0.824,0.400,0.107,881.000,239.000,116.000,114.000,7.000:
0000
0100
1000
0010
2000
0010
3000
0200
,
0001
0300
0020
1000
0030
2000
0000
0000
,
3010
0100
0010
0001
0002
0000
0013
0020
,
0000
0130
0200
0000
1300
2000
0000
0000
,
3100
0010
0001
0010
1000
0100
0001
0010
,
0000
0100
1000
0000
2000
0001
0000
0010
,
3000
0100
1000
0000
0200
1000
0000
1000
,
0300
0101
1010
0000
0200
0001
0000
0000
,
0302
1000
0100
0000
1003
1010
0000
0101
,
0100
0000
1010
0010
0000
0001
0101
0000
,
1100
0000
0010
0000
0100
1000
0000
0001
,
0010
0000
0100
1000
0000
0010
0101
0000
,
1001
0000
0110
0000
1100
1010
0000
0011
,
0101
0000
1100
1001
0000
1010
0011
0000
,
1001
0000
0100
0000
1010
0101
0000
0101
,
0110
0000
0101
1001
0000
0001
0101
1000
,
0002
0000
1000
0000
1003
0100
0010
0001
,
0010
1000
0100
0010
2000
0010
0000
0000
,
0010
0000
3010
0000
0101
0000
0000
0011
,
0000
1000
0100
0000
0011
2020
0000
0000
,
3030
0000
0010
0100
1000
0001
0000
0101
,
0010
0000
1100
0001
0000
0020
0200
0030
,
2000
0000
0000
3300
0000
0000
1100
0000
0100
0010
0001
0000
,
0001
0000
0010
0000
0100
0000
1000
0000
0100
0000
0010
0000
0001
0000
0000
1000
0000
0000
0100
0000
0000
0010
0000
0000
,
0011
0000
0110
0000
1001
1010
0000
0100
,
0011
0000
0100
1000
0010
1001
0100
0110
,
0000
1001
1100
1000
0010
1001
0000
0110
,
1000
0100
1000
0100
0001
1000
1001
0000
,
1010
0000
0000
0000
0000
0000
1001
0000
0000
0000
0000
0000
0010
0000
0000
0100
0000
0000
0001
0000
0010
0000
0100
0000
,
1000
0000
0100
0000
0010
0000
0001
0000
0010
0000
0100
0000
0000
0000
0000
1000
0000
0000
0101
0000
0000
1000
0000
0000
,
0000
0011
1000
0000
0010
0100
1000
0010
,
0000
0000
0101
0001
0000
0000
0010
0200
,
0001
0000
0001
0000
0310
1000
0100
0010
,
0001
0000
1010
0000
0101
0100
0010
1000
,
0100
0000
0100
0000
1000
0110
0000
1000
,
0100
0000
1000
0000
0011
0001
0100
1000
,
0000
0000
0000
0110
0000
0000
1000
0000
0000
0000
0000
0000
0110
0000
0000
0000
0000
0000
1000
0000
0100
0000
0010
0000
,
0001
0000
0010
0000
0100
0000
1000
0000
0000
0020
0000
0000
0000
0000
0000
1030
0000
0000
0000
0000
0000
1010
0000
0000
,
0000
0100
1010
0000
0001
0000
0010
0101
,
0000
0010
1000
0200
0020
0000
0000
0330
,
0000
1100
1001
0000
1010
0101
0000
1000
,
0010
0100
0110
0000
1000
0101
0000
0001
,
0010
1000
0000
1010
0100
1000
0000
0110
,
1000
0000
0101
0000
1100
1000
0000
0011
,
0100
0000
0000
0001
0000
0000
0110
0000
0000
0000
0000
0000
1000
0000
0000
0001
0000
0000
0001
0000
0010
0000
0100
0000
,
1000
0000
0100
0000
0010
0000
0001
0000
0000
0100
0000
0000
0000
0000
0000
1100
0000
0000
0100
0000
0000
0000
0000
0000
,
1000
1000
0001
0010
0100
0010
1000
0000
,
0000
0001
0010
2000
0000
0000
0001
0001
,
3000
0001
1001
0000
M100
00M1
001M
10M0
,
M100
00M1
1M00
001M
01M0
1M00
M010
M001
,
0001
0100
001M
010M
10M0
0001
1M00
0001
,
001M
0100
1000
0100
001M
0001
M010
0100
,
1000
0010
M010
0001
1001
0100
1000
0010
,
0001
1000
0010
0001
1000
0100
0010
0010
,
0100
1001
1001
0110
1001
0110
0011
0100
,
1000
1000
0100
0100
0010
0010
0001
0001
,
1100
0000
01M0
1000
10M1
0000
01M1
1001
,
1000
0000
1000
0110
0001
0000
0011
0100
,
100M
00M0
0M10
M100
1000
0000
0100
0110
,
1001
0000
1010
000M
00M1
0M10
M100
1M00
,
01M0
001M
1001
0010
1000
0001
0100
1000
,
0010
0000
0001
1000
0001
0100
1000
0010
,
0010
0000
0000
0101
0000
0000
1000
0000
0000
0101
0000
0000
0101
0000
0100
0000
0010
0000
0000
0000
0100
0000
0010
0000
,
0000
0100
0010
0000
0100
0010
0000
0000
0000
0101
0000
0000
,
1100
0000
0110
M00M
1001
1000
0100
00M0
,
0M10
M100
1000
M000
1000
0M00
01M0
0010
,
000M
0001
0010
1000
0010
0001
0110
0000
,
1000
1000
0110
0000
0110
1000
0110
1000
,
0001
0000
0000
1010
0000
0000
1010
0000
0000
1000
0100
0010
,
0001
0000
0010
0000
0100
0000
1000
0000
0100
0000
0010
0000
0001
0000
0000
0000
0000
0000
1001
0000
0000
0001
0000
0000
,
0000
0100
0110
0000
1010
0000
1100
1000
,
0000
1001
1010
0000
1100
0000
1001
1010
,
0000
1100
0100
0000
1010
0110
0000
1000
,
0101
0000
0000
1100
1010
0000
1000
0101
,
0000
1001
0000
0000
0011
0100
0000
1100
,
0000
0010
0010
00M0
1000
0001
0000
1100
,
0000
0000
0000
1000
0000
0000
0100
0000
0000
1000
0000
0000
0000
0000
0000
0100
0000
0000
1000
0000
0100
0000
0010
0000
,
0001
0000
0000
0001
0000
0000
0001
0000
0010
0000
0100
0000
0100
0000
0000
0100
0000
0000
0001
0000
0010
0000
0100
0000
,
1000
0010
1100
0000
0010
0010
00M0
1000
,
0000
0100
0010
0000
0100
0100
0M01
000M
,
00M1
0M10
0100
0000
1001
0000
0101
1000
,
0010
0000
110M
0000
0001
1100
0001
0000
,
0000
0010
01M0
0M10
0100
1000
1000
0000
,
0010
10M0
00M0
0010
0010
1000
0100
0M00
,
0M00
0100
0010
0100
0001
0000
0000
1000
,
0000
0100
0011
0000
0001
1100
1000
0000
,
0000
1010
1100
0000
0010
00M1
001M
0001
,
0000
0100
1010
0000
0101
0010
1001
0010
,
0000
1100
0011
0000
1000
0000
0000
0010
,
0000
0000
0101
0000
0100
0000
0000
1000
,
0000
0000
0100
0M10
0100
1000
M000
1000
,
0100
0001
0010
00M0
0001
1000
0M00
0100
,
0000
0000
0000
0101
0000
0000
0011
0000
0000
0000
0000
0000
0001
0000
0000
0010
0000
0000
0001
0000
0010
0000
0100
0000
,
1000
0000
0100
0000
0010
0000
0001
0000
0000
0000
0000
0000
0010
0000
0000
1100
0000
0000
0100
0000
0000
0101
0000
0000
,
0000
0011
0001
1000
0110
0000
0010
0110
,
0100
0000
1001
0102
0000
0000
0000
0000
,
0003
1000
0010
0000
1001
0010
0101
1000
,
1100
0001
1000
0011
0101
1000
0011
1100
,
0100
0001
0010
0010
0100
1000
0000
1010
,
0011
0101
1010
0101
0100
1010
0110
0010
,
0010
1010
0110
0000
1M01
0000
M100
0000
,
0001
010M
11M0
0010
,
10M0
0100
0M11
0100
,
0010
0000
1001
0100
,
100M
0000
010M
0000
1100
1001
0000
0000
,
0M10
01M0
0000
0000
0101
0011
0000
0000
,
1010
1100
1000
0100
0010
0110
0000
0000
,
1010
M010
0000
M000
1M00
01M0
001M
00M1
,
0M10
0000
0000
M100
0000
0000
1000
0000
0000
0100
0000
0000
0001
0000
0010
0000
0100
0000
1000
0000
0000
0000
0000
0000
,
1000
0100
0010
0001
0000
0000
0001
0010
0100
1000
0000
0000
,
1000
0100
0010
0001
0000
0000
0001
0010
0100
1000
0000
0000
,
1000
0100
0010
0001
0000
0000
0001
0010
0100
1000
0000
0000
,
1000
0100
0010
0001
0000
0000
2200
0000
0000
0000
0000
0000
,
0300
0000
0020
3000
0200
0000
0000
0030
,
0000
0000
0300
1000
0102
1000
0020
0000
,
0000
0030
0000
0203
0020
0300
0200
0000
,
0030
0300
2010
0000
3020
2000
0000
3000
,
2000
0000
0000
3000
0200
0000
0330
0200
,
0000
0300
0200
0000
0302
0000
0003
2002
,
0000
0000
3003
0002
0020
0000
0000
0003
,
0002
0000
1033
0000
0101
0110
0001
1010
,
0000
0100
0011
0000
1100
0110
0000
0100
,
0010
1001
0001
0100
0011
1000
0000
1100
,
0100
100M
0001
00MM
0M10
M100
M000
1000
,
0011
0000
0010
110M
0010
0000
M011
0010
,
0000
0000
1MM1
M11M
0000
0001
0000
0110
,
1010
0000
1000
0101
0000
0110
0000
1010
,
0011
0000
1100
0001
0000
0110
0000
0010
,
1010
0000
0101
0100
1001
2002
0000
3000
,
2000
0003
0000
3001
0000
0220
0000
0030
,
0020
0300
0000
0000
1030
1000
2002
0000
,
3000
2000
0003
3000
2000
0001
3000
0220
,
0000
0330
0020
0000
0030
1000
0100
0022
,
0000
0000
0033
0002
0000
0010
1003
0002
,
1000
0100
1003
0002
0000
1000
0103
0002
,
1000
0100
0013
0100
1000
0000
0000
1001
,
0010
0000
0000
0000
0000
0000
1100
0000
0000
0001
0000
0000
0010
0000
0000
0000
0000
0000
0000
0000
0010
0000
0100
0000
,
1000
0110
0000
0101
0110
1000
0000
1100
,
0000
0000
1M1M
M1M1
0010
0100
0000
0110
,
0000
0000
1M1M
MM11
M1MM
1MMM
0000
1000
,
0000
0000
1001
0010
1000
0001
0000
0110
,
0000
0200
0000
0000
0000
0320
1001
0000
,
0000
0032
0000
0000
0003
0002
0000
0000
,
2003
0002
0100
3003
2001
0000
0020
3000
,
2030
0020
0000
0000
3030
0002
0000
0000
,
0020
0003
0002
0000
0030
0200
0003
0000
,
0000
0300
0020
0100
0000
0100
0130
0002
,
0000
0000
0003
0110
0200
0000
0000
0302
,
0200
0000
0000
0003
0300
0200
0002
0000
,
0000
0000
0300
0203
0000
2000
0000
0000
,
3300
2000
0000
0200
0000
3000
0020
0300
,
0200
0000
0030
0020
0301
0000
0000
0000
,
0031
0000
0000
0011
0110
2000
0000
0000
,
0000
3100
2020
0000
0000
0032
3020
0000
,
0000
0033
0000
1000
0102
0000
0000
1003
,
0200
1000
0000
0300
2200
0000
0000
0000
,
0000
3300
0002
0020
0000
0000
0003
0002
,
0000
0000
0000
0100
0003
1000
0030
0000
,
0011
0110
2100
0000
0000
3000
0000
2010
,
0001
0000
0002
0000
0000
3000
0000
1000
,
0103
1000
0102
1000
0000
0000
0013
0200
,
0000
2000
0000
3300
2000
0000
3000
0020
,
0000
2030
0020
0000
0000
0030
0000
0001
,
3001
0MM0
0110
M00M
1001
0MM0
0110
M00M
,
1001
0000
0000
0000
;

//---------------dance-single - Copied from Copied f----------------
#NOTES:
     dance-single:
     Copied from Copied f:
     Hard:
     1:
     0.483,0.763,0.355,0.262,0.059,802.000,103.000,76.000,0.000,3.000:
0000
0100
0100
0010
2000
0000
3000
0200
,
0000
0300
0020
0000
0030
2000
0000
0000
,
3010
0100
0010
0001
0002
0000
0003
0020
,
0000
0030
0200
0000
0300
2000
0000
0000
,
3100
0010
0001
0010
1000
0000
0000
0010
,
0000
0100
1000
0000
2000
0000
0000
0010
,
3000
0100
1000
0000
0200
0000
0000
1000
,
0300
0001
0010
0000
0200
0000
0000
0000
,
0302
0000
0100
0000
1003
1000
0000
0100
,
0100
0000
0010
0010
0000
0001
0001
0000
,
0100
0000
0010
0000
0100
0100
0000
0010
,
0010
0000
0100
0100
0000
0001
0001
0000
,
0001
0000
0100
0000
1010
1010
0000
1001
,
1001
0000
1010
1010
0000
0101
0101
0000
,
1000
0000
0100
0000
1010
1010
0000
1010
,
1010
0000
0101
0101
0000
0001
0001
0000
,
0002
0000
0000
0000
1003
0100
0000
0001
,
0010
0000
0100
0010
2000
0010
0000
0000
,
0000
0000
3000
0000
0101
0000
0000
0010
,
0000
1000
0100
0000
1001
2002
0000
0000
,
3003
0000
0000
0000
1000
0001
0000
0100
,
0010
0000
1000
0001
0000
0020
0200
0000
,
0000
0000
0000
0030
0000
0000
0300
0000
0000
0000
0000
0000
0100
0000
0000
1000
0100
0000
0010
0000
0001
0000
0000
0000
,
0001
0010
0001
0100
1001
1000
0100
0010
,
0010
0000
0100
0000
1001
1000
0000
0100
,
0001
0000
0100
1000
0010
0001
0000
0010
,
0000
1000
0100
1000
0010
1000
0000
0010
,
1000
0000
1000
0000
0001
1000
1000
0000
,
1000
0000
0000
1000
0000
0000
0010
0000
0000
0001
0010
0100
,
1000
1000
0100
0000
0100
1000
0100
1000
,
0000
0010
1000
0000
1000
0100
1000
0100
,
0000
0000
0001
0001
0000
0000
0010
0200
,
0000
0300
1001
0000
0010
1000
0100
0010
,
0000
0000
1010
0000
0001
0100
0010
1000
,
0000
0000
0100
0000
1000
0010
0000
1000
,
0000
0000
1000
0000
0001
0001
0100
1000
,
0000
0000
0000
0100
0000
0000
1000
0000
0000
0000
0000
0000
0100
0000
0000
0000
0000
0000
1000
0000
0100
0000
0010
0000
,
0001
1000
0100
0020
0000
1030
0000
1000
,
0000
0100
0010
0000
0001
0000
0100
0100
,
0000
0000
1000
0200
0000
0000
0000
0300
,
0000
0100
1001
0000
0010
0001
0000
1000
,
0010
0100
0100
0000
1000
0100
0000
1000
,
1000
1000
0000
1000
0100
1000
0000
0100
,
1000
0000
0101
0000
1000
1000
0000
0001
,
0100
0000
0000
0001
0000
0000
0010
0000
0000
0000
0000
0000
1000
0000
0000
0001
0000
0000
0001
0000
0010
0000
0100
0000
,
1000
0000
0001
0100
0000
0100
0100
0000
,
0000
1000
0001
0010
0100
0010
0000
0000
,
0000
0001
0010
2000
0000
0000
0001
0001
,
3000
0001
1001
0000
0100
0001
0010
1000
,
0100
0001
1000
0010
0100
1000
0010
0001
,
0001
0100
0010
0100
1000
0001
1000
0001
,
0010
0100
1000
0100
0010
0001
0010
0100
,
1000
0100
0010
0001
1001
0100
0100
0010
,
0010
1000
0100
0001
0010
0100
0100
0010
,
0010
1001
1001
0110
1001
0100
0010
0100
,
1000
0100
0010
0001
,
1000
0000
0100
1000
1001
0000
0101
1000
,
1000
0000
1000
0010
0001
0000
0001
0100
,
1000
0000
0010
0100
1000
0000
0000
0100
,
1001
0000
0010
0000
0001
0010
0100
1000
,
0100
0010
1001
0010
0100
1001
0100
1001
,
0010
0100
0001
0100
0001
0010
1000
0010
,
0010
0000
0000
0101
0000
0000
1000
0000
0000
0101
0000
0000
0101
0000
0100
0000
0010
0000
1000
0000
0100
0000
0010
0000
,
0001
0000
0100
0000
0101
0010
0001
0000
,
0110
0000
0110
0000
1001
1000
0100
0000
,
0010
0100
1000
0000
1000
0000
0100
0010
,
0000
0001
0010
0000
0010
0001
0100
0000
,
1000
1000
0100
0000
0100
1000
0100
1000
,
0001
0000
0000
1010
0000
0000
1010
0000
0000
1000
0100
0010
,
0001
1000
1000
0000
0010
0000
0001
0001
,
0000
0100
0100
0000
0010
0000
1000
1000
,
0000
0001
0010
0000
0100
0000
1000
1000
,
0000
1000
0100
0000
0010
0100
0000
1000
,
0001
0000
0000
1010
1010
0000
1000
0100
,
0000
0001
0000
0000
0001
0100
0000
1000
,
0000
0010
0010
0000
1000
0001
0000
0100
,
0000
0000
0000
1000
0000
0000
0100
0000
0000
1000
0000
0000
0000
0000
0000
0100
0000
0000
1000
0000
0100
0000
0010
0000
,
0001
0001
0010
0000
0100
0100
0001
0000
,
0000
0010
0100
0000
0010
0010
0000
1000
,
0000
0100
0010
0000
0100
0100
0001
0000
,
0001
0010
0100
0000
1001
0000
0001
1000
,
0010
0000
0100
0000
0001
0100
0001
0000
,
0000
0010
0100
0010
0100
0000
1000
0000
,
0010
1000
0000
0010
0010
1000
0100
0000
,
0000
0100
0010
0100
0010
0000
0000
0100
,
0000
0100
0010
0000
0001
1000
1000
0000
,
0000
1000
0100
0000
0010
0001
0010
0001
,
0000
0100
0010
0000
0001
0010
0001
0010
,
0000
0100
0010
0000
1000
0001
0010
0010
,
0000
0000
0001
0000
0100
0010
0000
1000
,
0000
1000
0100
0010
0100
1000
0000
1000
,
0100
0001
0010
0000
0010
0100
0000
0100
,
0000
0000
0000
0001
0000
0000
0001
0000
0000
0000
0000
0000
0001
0000
0000
0010
0000
0000
0001
0000
0010
0000
0100
0000
,
1000
1000
0100
0000
0010
0100
0000
0001
,
0000
0001
0001
1000
0010
0000
0010
0100
,
0100
0000
1000
0002
0000
0000
0000
0000
,
0003
1000
0001
0000
0101
1000
0101
1000
,
1010
0001
1010
0001
0101
1000
0101
1000
,
0010
0101
0010
0101
0100
1010
0100
1010
,
0010
0101
0010
0101
0100
1010
0110
1010
,
0110
1010
0110
0000
1001
0000
0100
0000
,
0011
0100
1100
0010
,
1000
0100
0011
0100
,
0010
0100
1001
0100
,
1000
0000
1000
0000
1001
1001
0000
0000
,
0110
0010
0000
0000
0101
0001
0000
0000
,
1010
1000
1000
0100
0010
0010
0000
0000
,
1010
0010
0000
0000
1000
0100
0010
0001
,
0010
0000
0000
0100
0000
0000
1000
0000
0000
0100
0000
0000
0010
0000
0100
0000
1000
0000
0000
0000
0000
0000
0000
0000
,
0100
0010
0001
0000
0000
0000
0010
0100
1000
0000
0000
0000
,
0100
0010
0001
0000
0000
0000
0010
0100
1000
0000
0000
0000
,
0100
0010
0001
0000
0000
0000
0010
0100
1000
0000
0000
0000
,
0100
0010
0001
0000
0000
0000
2000
0000
0000
0000
0000
0000
,
0000
0000
0020
3000
0200
0000
0000
0030
,
0000
0000
0000
1000
0002
0000
0300
0000
,
0000
0000
0000
0203
0020
0000
0000
0000
,
0030
0300
2000
0000
0020
0000
0000
0000
,
0000
3000
0200
0030
,
0001
0001
0302
1000
,
1000
0000
1000
0000
0020
0000
0000
0003
,
0000
0000
1030
0000
1001
0100
0001
0010
,
0000
0100
0010
0000
0100
0010
0000
0100
,
0010
0001
0010
0100
0010
1000
0000
0100
,
1000
1000
0001
0000
0010
0100
0000
1000
,
0011
0000
0010
1100
0010
0000
0011
0010
,
0000
0000
1001
0110
0000
0010
0000
0110
,
0010
0000
1000
0101
0000
0010
0000
1010
,
0010
0000
1000
0001
0000
0100
0000
0010
,
0010
0000
0101
0100
0000
2002
0000
0000
,
0000
0003
0000
3001
0000
0220
0000
0000
,
0000
0300
0000
0000
1030
0000
2002
0000
,
0000
0000
0003
0000
0000
3001
0000
0220
,
0000
0000
0300
0030
0000
1000
0000
0022
,
0000
0000
0030
0000
0000
0010
0100
0000
,
1003
0100
1000
0000
0000
0010
0100
0000
,
1000
0100
0010
0000
0000
0000
0000
0001
,
0010
0000
0100
0001
0010
0000
0000
0000
,
1000
0100
0000
0101
0100
1000
0000
0100
,
0000
0000
1010
0101
0010
0100
0000
0100
,
0000
0000
1010
0011
0100
1000
0000
1000
,
0000
0000
1010
0010
1000
0001
0000
0100
,
0000
0200
0000
0000
0000
0320
1031
0000
,
0000
0002
0000
1000
0000
1000
0000
0000
,
2000
0103
0001
3020
,
2000
0000
0000
0000
3030
0002
0000
0000
,
0020
0000
0000
0000
0000
0003
1000
0100
,
1000
0100
1000
0100
0030
1000
0100
0002
,
0000
0000
0000
0010
0203
0000
0000
0002
,
0000
0300
0000
0003
0100
1000
0002
0000
,
0000
0000
0010
0203
0000
2000
0000
0000
,
0300
0000
3000
0200
0000
0000
0020
0000
,
0000
0000
0000
0300
0001
0000
0001
0000
,
0031
0000
0000
0010
0100
2000
0000
0000
,
0000
0100
0020
0000
3000
0002
0000
0030
,
0000
1003
0000
1000
0102
0000
0000
0003
,
0200
1000
0000
0000
2000
0000
0000
0300
,
0000
3002
0000
0020
0000
0000
0000
0000
,
0003
1000
0000
1000
0000
1000
0030
0000
,
0010
0100
2000
0000
0000
3000
0000
2000
,
0001
0000
0002
0000
0000
3000
0000
1000
,
0003
1000
0002
1000
0000
0000
0013
0200
,
0000
2000
0000
0300
0000
3000
0000
0020
,
0000
2000
0000
0001
0030
0001
0000
0001
,
3001
0110
1001
0110
,
1001
0000
0000
0000
;

//---------------dance-single - Copied from Copied f----------------
#NOTES:
     dance-single:
     Copied from Copied f:
     Medium:
     1:
     0.305,0.506,0.152,0.203,0.000,516.000,44.000,59.000,0.000,0.000:
0000
0100
0100
0010
1000
0000
0000
0100
,
0000
0000
0010
0000
0000
2000
0000
0000
,
3000
0000
0000
0000
0001
0000
0000
0010
,
0000
0000
0100
0000
0000
2000
0000
0000
,
0000
3000
0000
0000
1000
0000
0000
0010
,
0000
0000
0100
0000
0000
2000
0000
0000
,
3000
0000
0000
0000
0100
0000
0000
1000
,
0000
0000
0010
0000
0000
0200
0000
0000
,
0302
0000
0100
0000
1003
0000
0000
0100
,
0000
0000
0010
0000
0000
0002
0000
0000
,
0000
0003
0000
0000
0100
0000
0000
0010
,
0000
0000
0100
0000
0000
0002
0000
0000
,
0003
0000
0000
0000
1010
0000
0000
1001
,
0000
0000
1010
0000
0000
0202
0000
0000
,
0000
0303
0000
0000
1000
0000
0000
1010
,
0000
0000
0101
0000
0000
0001
0000
0000
,
0002
0000
0000
0000
1003
0000
0000
0001
,
0000
0000
0100
0010
2000
0000
0000
0000
,
0000
0000
3000
0000
0101
0000
0000
0010
,
0000
0000
1000
0100
2002
0000
0000
0000
,
0000
3003
0000
0000
1000
0000
0000
0100
,
0000
0000
1000
0000
0000
0020
0000
0000
,
0000
0030
0000
0000
0100
0000
0001
0100
,
0001
0010
0001
0100
1001
0000
0100
0000
,
0010
0000
0100
0000
1001
1000
0000
0100
,
0000
0000
1000
0000
0010
0001
0000
0020
,
0000
0000
0030
0000
0010
1000
0000
0010
,
0000
0000
1000
0000
0001
0010
0000
0010
,
0000
1000
0010
0000
,
0000
1000
0100
0000
0100
0000
0000
0000
,
0000
0010
1000
0000
1000
0000
0000
0000
,
0000
0000
0001
0001
0000
0000
0010
0000
,
0100
0000
1001
0000
0010
1000
0000
0010
,
0000
0000
1010
0000
0001
0100
0000
1000
,
0000
0000
0110
0000
1000
0010
0000
1000
,
0000
0000
1000
0000
0001
0001
0000
1000
,
0000
1000
0100
0000
,
0000
1000
0100
0010
0000
0000
0000
0000
,
0000
0100
0010
0001
0000
0000
0000
0000
,
0000
0000
1000
0200
0000
0000
0000
0300
,
0000
0000
1001
0000
0010
0001
0000
1000
,
0000
0000
0100
0000
1000
0100
0000
1000
,
0000
0000
0000
0000
0100
1000
0000
1000
,
0000
0000
0010
0000
1000
1000
0000
0001
,
0000
0000
0010
0000
1000
0001
0010
1000
,
0000
0000
0001
0100
0000
0000
0000
0000
,
0000
1000
0001
0010
0000
0000
0000
0000
,
0000
0000
0010
2000
0000
0000
0000
0000
,
3000
1001
0100
0010
,
0100
1000
0100
0010
,
0001
0000
0010
0100
1000
0000
1001
0000
,
0010
0000
0000
0000
0010
0001
0010
0100
,
1000
0100
0010
0001
0010
0000
0100
0000
,
0010
0100
0010
0100
,
0010
0000
1001
0000
1001
0100
0010
0100
,
1000
0000
0010
0000
,
1000
0100
1001
0000
,
1000
0000
0001
0000
,
1000
0000
0010
0100
1000
0000
0000
0100
,
1001
0000
0000
0000
0001
0010
0100
1000
,
0100
0010
0001
0010
0100
1000
0100
1000
,
0010
0100
0010
0100
0001
0010
0001
0010
,
0010
0100
0010
0100
0101
0000
0000
0000
,
0001
0000
0100
1000
0100
0000
0001
0000
,
0100
0100
1001
0000
,
0000
0100
1000
0000
1000
0000
0000
0000
,
0000
0001
0010
0000
0010
0000
0000
0000
,
0000
1000
0100
0000
0100
0000
0000
0000
,
0000
1010
1010
0000
,
0000
1000
1000
0000
0010
0000
0000
0000
,
0000
0100
0100
0000
0010
0000
0000
0000
,
0000
0001
0010
0000
0100
0000
0000
0000
,
0000
1000
0100
0000
0010
0100
0000
1000
,
0000
1010
1010
0000
,
0000
0000
0000
0000
1000
0100
0000
1000
,
0000
0000
1000
0000
1000
0000
0000
0100
,
0000
1000
0100
1000
0000
0100
1000
0100
,
0010
0001
0010
0000
0100
0000
0000
0000
,
0000
0010
0100
0000
0010
0000
0000
0000
,
0000
0100
0010
0000
0100
0000
0000
0000
,
0000
0010
0100
0000
1001
0000
0001
0000
,
0001
0000
0100
0000
0001
0100
0001
0000
,
0000
0010
0100
0010
0100
0000
1000
0000
,
0010
0000
1000
0000
0010
1000
0100
0000
,
0000
0100
0010
0100
0010
0000
0000
0000
,
0000
0100
0010
0000
0001
0000
0000
0000
,
0000
1000
0100
0000
0010
0000
0000
0000
,
0000
0100
0010
0000
0001
0000
0000
0000
,
0000
0100
0010
0000
1000
0001
0000
0010
,
0000
0000
0001
0000
0100
0010
0000
1000
,
0000
0000
0000
0000
0100
1000
0000
1000
,
0000
0000
0010
0000
0010
0100
0000
0100
,
0000
0000
0001
0000
0001
0010
0001
0010
,
0100
1000
0100
0010
0000
0000
0000
0000
,
0000
0000
0001
1000
0000
0000
0000
0000
,
0000
0000
1000
0002
0000
0000
0000
0000
,
0003
0000
1001
0000
0100
1000
0100
1000
,
0010
0001
0010
0001
0100
1000
0100
1000
,
0010
0001
0010
0001
0100
1000
0100
1000
,
0010
0001
0010
0001
0100
1000
0100
1000
,
0110
0001
0110
0000
1000
0000
0000
0000
,
0010
0000
0100
0000
,
1000
0100
0010
0000
,
0010
0000
1000
0100
,
1000
1000
1001
0000
,
0010
0000
0100
0000
,
1000
0000
1000
0100
0010
0000
0000
0000
,
1010
0000
0000
0000
1000
0100
0010
0001
,
0010
0100
1000
0100
0010
0000
0000
0000
,
0100
0000
0010
0000
,
0100
0000
0010
0000
,
0100
0000
0010
0000
,
0100
0000
2002
0000
,
3003
0010
0200
0000
,
0300
0000
0000
1000
2002
0000
0000
0000
,
3003
0100
0020
0000
,
0030
1000
0020
0000
,
0030
0000
0200
0000
,
0300
0000
0002
0000
,
0000
0003
0020
0000
,
0000
0000
0030
0000
1000
0100
0000
0010
,
0000
0100
0010
0000
0100
0010
0000
0100
,
0010
0000
0010
0100
0010
1000
0000
0100
,
0000
1000
0001
0000
0010
0100
0000
1000
,
0010
0000
0010
0100
0010
0000
0000
0000
,
0000
0000
1000
0100
0000
0010
0000
0000
,
0000
0000
1000
0100
0000
0010
0000
0000
,
0000
0000
1000
0100
0000
0010
0000
0000
,
0000
0000
0010
0100
0000
2002
0000
0000
,
0000
3003
0000
0001
0000
0220
0000
0000
,
0000
0330
0000
0000
1000
0000
2002
0000
,
0000
0000
3003
0000
0000
0001
0000
0220
,
0000
0000
0000
0330
0000
1000
0000
0022
,
0000
0000
0033
0000
0000
0010
0100
0000
,
1000
0000
0000
0000
0000
0010
0100
0000
,
1000
0000
0000
0000
0000
0000
0000
0001
,
0010
0100
0000
0000
,
1000
0100
0000
0101
0000
1000
0000
0100
,
0000
0000
1010
0000
0000
0100
0000
0100
,
0000
0000
1010
0000
0000
1000
0000
1000
,
0000
0000
1010
0000
1000
0000
0000
0100
,
0000
0200
0000
0000
0300
0010
0001
0000
,
0000
0002
0000
0000
0000
0003
0000
0000
,
2000
0000
0000
3000
0001
0000
0010
0000
,
2000
0000
0000
0000
3000
0001
0000
0000
,
0020
0000
0000
0000
,
0000
0000
0000
0000
0030
0000
0000
0002
,
0000
0000
0003
0010
0100
0000
0000
0002
,
0000
0000
0000
0003
0000
0000
0002
0000
,
0000
0003
0010
0100
0000
2000
0000
0000
,
0000
0000
3000
0100
0000
0000
0020
0000
,
0000
0000
0000
0000
,
0030
0000
0000
0000
0000
2000
0000
0000
,
3000
0100
0010
0000
0000
0002
0000
0000
,
0000
0003
0000
0000
0002
0000
0000
0003
,
0100
1000
0000
0000
2000
0000
0000
0000
,
3000
0001
0000
0020
0000
0000
0000
0000
,
0000
0000
0000
0030
,
0000
0000
2000
0000
0000
3000
0000
1000
,
0001
0002
0000
0000
,
0003
0000
0002
0000
0000
0003
0010
0100
,
0000
2000
0000
0000
0000
3000
0000
0010
,
0000
2002
0000
0000
0000
0000
0000
0000
,
3003
0000
0000
0000
;

//---------------dance-single - Copied from----------------
#NOTES:
     dance-single:
     Copied from:
     Easy:
     1:
     0.206,0.254,0.045,0.148,0.000,362.000,13.000,43.000,0.000,0.000:  // measure 1
0000
0000
0010
0000
0010
0000
0000
1000
,  // measure 2
0000
0000
1000
0000
0000
2000
0000
0000
,  // measure 3
0000
3000
0000
0000
0100
0000
0000
0100
,  // measure 4
0000
0000
0100
0000
0000
0200
0000
0000
,  // measure 5
0000
0300
0000
0000
0010
0000
0000
0010
,  // measure 6
0000
0000
0010
0000
0000
0020
0000
0000
,  // measure 7
0000
0030
0000
0000
0001
0000
0000
0001
,  // measure 8
0000
0000
0001
0000
0000
0002
0000
0000
,  // measure 9
0000
0000
0000
0000
1003
0000
0000
1000
,  // measure 10
0000
0000
0010
0000
0000
0020
0000
0000
,  // measure 11
0000
0030
0000
0000
1000
0000
0000
1000
,  // measure 12
0000
0000
0001
0000
0000
0002
0000
0000
,  // measure 13
0000
0003
0000
0000
0100
0000
0000
0100
,  // measure 14
0000
0000
1000
0000
0000
2000
0000
0000
,  // measure 15
0000
3000
0000
0000
0001
0000
0000
0001
,  // measure 16
0000
0000
1000
0000
0000
1000
0000
0000
,  // measure 17
0002
0000
0000
0000
0103
0000
0000
0100
,  // measure 18
0000
0000
1000
0000
0000
2000
0000
0000
,  // measure 19
0000
3000
0000
0000
0001
0000
0000
0001
,  // measure 20
0000
0000
0010
0000
0000
0020
0000
0000
,  // measure 21
0000
0030
0000
0000
0100
0000
0000
0100
,  // measure 22
0000
0000
0001
0000
0000
0002
0000
0000
,  // measure 23
0000
0003
0000
0000
1000
0000
0010
0000
,  // measure 24
0010
0010
0010
0000
,  // measure 25
0000
0000
0000
0000
1001
1000
0000
1000
,  // measure 26
0000
0000
0100
0000
0010
0010
0000
0010
,  // measure 27
0000
0000
0000
0000
0100
0100
0000
0100
,  // measure 28
0000
0000
0010
0000
0001
0001
0000
0001
,  // measure 29
0000
0100
0100
0000
,  // measure 30
0000
0100
0100
0000
0100
0000
0000
0000
,  // measure 31
0000
0100
0100
0000
0100
0000
0000
0000
,  // measure 32
0000
0000
0010
0010
0000
0000
0000
0000
,  // measure 33
0000
0000
1000
0000
0100
0100
0000
0100
,  // measure 34
0000
0000
1000
0000
1000
1000
0000
1000
,  // measure 35
0000
0000
0000
0000
0100
0100
0000
0100
,  // measure 36
0000
0000
1000
0000
1000
1000
0000
1000
,  // measure 37
0000
0010
0010
0000
,  // measure 38
0000
0000
1000
0001
0000
0000
0000
0000
,  // measure 39
0000
0000
1000
0001
0000
0000
0000
0000
,  // measure 40
0000
0000
1000
0001
0000
0000
0000
0000
,  // measure 41
0000
0000
1000
0000
1000
1000
0000
1000
,  // measure 42
0000
0000
0001
0000
0001
0001
0000
0001
,  // measure 43
0000
0000
0000
0000
1000
1000
0000
1000
,  // measure 44
0000
0000
0001
0000
0001
0001
0000
0001
,  // measure 45
0000
0100
0100
0010
,  // measure 46
0000
0000
0010
0100
0000
0000
0000
0000
,  // measure 47
0000
0000
0010
0100
0000
0000
0000
0000
,  // measure 48
0000
0000
0100
0010
0000
0000
0000
0000
,  // measure 49
0000
0000
1000
0000
,  // measure 50
0100
0000
1000
0000
,  // measure 51
0100
0000
1000
0000
,  // measure 52
0100
0000
0001
0010
,  // measure 53
0100
0010
0010
0000
,  // measure 54
0100
0000
1000
0000
,  // measure 55
0100
0100
0100
0000
,  // measure 56
0010
0000
0100
0000
,  // measure 57
1000
0000
1010
0000
,  // measure 58
0001
0000
0010
0000
,  // measure 59
0100
0000
1000
0000
,  // measure 60
1001
0000
0001
0010
,  // measure 61
0100
1000
0100
1000
,  // measure 62
0100
0010
0100
1000
,  // measure 63
0100
0010
0101
0000
,  // measure 64
0100
0100
0100
0000
,  // measure 65
0000
0100
1001
0000
,  // measure 66
0000
1000
1000
0100
,  // measure 67
0100
0000
0100
0100
,  // measure 68
0100
1000
1000
0000
,  // measure 69
1000
1000
1000
0000
,  // measure 70
0100
0010
0010
0000
,  // measure 71
0000
0100
1000
0000
,  // measure 72
0000
0100
1000
0000
,  // measure 73
0001
0001
0010
0010
,  // measure 74
0000
0100
0100
0100
,  // measure 75
0100
0100
1000
0000
,  // measure 76
1000
1000
1000
0001
,  // measure 77
0000
0100
0100
1000
,  // measure 78
0010
0001
0001
0000
,  // measure 79
0000
0010
0100
0000
,  // measure 80
0000
0010
0100
0000
,  // measure 81
0010
0100
1001
0001
,  // measure 82
0001
1000
1000
0000
,  // measure 83
0000
0000
0100
0100
,  // measure 84
0001
0001
0010
0000
,  // measure 85
0000
0010
0010
0000
,  // measure 86
0000
1000
0100
0000
,  // measure 87
0000
1000
0100
0000
,  // measure 88
0000
1000
0100
0000
,  // measure 89
0000
0000
0000
0000
0001
0001
0000
0001
,  // measure 90
0000
0000
0000
0000
0010
0010
0000
0010
,  // measure 91
0000
0000
0000
0000
0001
0001
0000
0001
,  // measure 92
0000
0000
0000
0000
0010
0010
0000
0010
,  // measure 93
0000
0001
0001
0001
,  // measure 94
0010
0100
0000
0000
,  // measure 95
0000
0000
0010
0010
0000
0000
0000
0000
,  // measure 96
0000
0000
0100
0100
0000
0000
0000
0000
,  // measure 97
0000
0001
0100
0010
,  // measure 98
0100
0010
0100
0010
,  // measure 99
0100
0010
0100
0010
,  // measure 100
0100
0010
0100
0010
,  // measure 101
0100
0010
0001
0000
,  // measure 102
0010
0100
0000
0000
,  // measure 103
1000
0000
0100
0000
,  // measure 104
0001
0000
0010
0000
,  // measure 105
0100
0000
0110
0000
,  // measure 106
1000
0000
0100
0000
,  // measure 107
1000
0000
1000
0000
,  // measure 108
0100
0000
0100
0010
,  // measure 109
0010
1000
0010
0000
,  // measure 110
0100
0000
0010
0000
,  // measure 111
1000
0000
0010
0000
,  // measure 112
0100
0000
0010
0000
,  // measure 113
1000
0000
2000
0000
,  // measure 114
0000
3000
0200
0000
,  // measure 115
0000
0300
0020
0000
,  // measure 116
0000
0030
0000
0000
0002
0000
0000
0000
,  // measure 117
0000
0003
0020
0000
,  // measure 118
0000
0030
0200
0000
,  // measure 119
0000
0300
0000
0000
2000
0000
0000
0000
,  // measure 120
0000
3000
0200
0000
,  // measure 121
0000
0300
2000
0000
,  // measure 122
0000
0000
3000
0100
0200
0000
0000
0000
,  // measure 123
0000
0300
0000
0000
0020
0000
0000
0000
,  // measure 124
0000
0000
0030
0100
0200
0000
0000
0000
,  // measure 125
0000
0300
0001
0000
,  // measure 126
0000
0000
0100
0100
0000
0100
0000
0000
,  // measure 127
0000
0000
0010
0010
0000
0010
0000
0000
,  // measure 128
0000
0000
0100
0100
0000
0100
0000
0000
,  // measure 129
0000
0000
0000
0000
0000
2002
0000
0000
,  // measure 130
0000
0000
0000
3003
0000
2002
0000
0000
,  // measure 131
0000
0000
0000
3003
0000
0000
2002
0000
,  // measure 132
0000
0000
0000
0000
3003
0000
0000
2002
,  // measure 133
0000
0000
0000
0000
0000
3003
0000
2002
,  // measure 134
0000
0000
0000
0000
,  // measure 135
3003
0000
0000
0000
0000
1000
1000
0000
,  // measure 136
1000
0000
0000
0000
0000
0000
0000
0100
,  // measure 137
0100
0100
0000
0000
,  // measure 138
0010
0010
0000
0110
0000
0000
0000
0000
,  // measure 139
0000
0001
0000
0000
,  // measure 140
0000
0010
0000
0000
,  // measure 141
0000
1000
0000
0000
,  // measure 142
0000
1000
0000
0000
0000
0100
0100
0000
,  // measure 143
0000
0002
0000
0000
0000
0003
0000
0000
,  // measure 144
0001
0000
0010
0100
,  // measure 145
1000
0000
0000
0000
,  // measure 146
0020
0000
0000
0000
,  // measure 147
0000
0000
0000
0000
0030
0000
0000
0001
,  // measure 148
0000
0000
0001
0000
0000
0000
0000
0002
,  // measure 149
0000
0000
0000
0003
0000
0000
0001
0000
,  // measure 150
0000
0000
0000
0000
0000
2000
0000
0000
,  // measure 151
0000
3000
0000
0020
,  // measure 152
0000
0000
0000
0000
,  // measure 153
0030
0000
0000
0000
0000
1000
0000
0000
,  // measure 154
0000
0000
1000
0000
0000
0002
0000
0000
,  // measure 155
0000
0003
0000
0000
0001
0000
0000
0000
,  // measure 156
0000
0001
0000
0000
1000
0000
0000
0000
,  // measure 157
0000
0000
0000
2000
0000
0000
0000
0000
,  // measure 158
0000
0000
0000
3000
,  // measure 159
0000
0001
0000
0000
,  // measure 160
0001
0002
0000
0000
,  // measure 161
0003
0000
0100
0000
0000
0000
0000
0100
,  // measure 162
0000
0200
0000
0000
0000
0300
0000
0000
,  // measure 163
0000
0002
0000
0000
0000
0000
0000
0000
,  // measure 164
0000
0000
0000
0000
,  // measure 165
0003
0000
0000
0000
;
